隔壁网

[玩机/晒机] 极空间Z2--一款新手优先考虑的NAS产品 by氘氘

2020-9-23 12:15
24842
本帖最后由 氘氘 于 2020-9-23 12:47 编辑

首先声明,1,这次抢鲜体验,拿到的是工程限量版机型,和正式上市的版本会存在一定差异,普通用户正式购买到的以最终机型为准,但这批工程纪念版机型数量极其稀少,个人觉得还是相当有纪念意义的。
2,本文为氘氘原创,首发至隔壁网,如需转发至其他网站需注明来源和首发链接,谢谢。


首先上简单开箱
IMG_8098-.jpg
外箱正上方

正面:标注了设备硬件信息,支持的主要功能

侧面:标注了内容物。 这次是工程纪念版,并不包含硬盘,所以不要被箱子上的标注迷惑哦,据说后续还会有附带硬盘的版本出售

开箱,首先看到的这张

看这个架势,如果真放两块3.5”硬盘,应该也是保护的妥妥的。

保护的相当到位

螺丝和扳手,已被取用4颗,实际一共12颗

电源输入为宽电压100-240V~ 1.5A      输出12V 4A
电源大小和2.5”的ssd比对一下

主角登场,
正面比较简单 ,两个硬盘灯,电源,两个硬盘仓
正上方尾部为logo+极空间
侧面带有腰线,家里LD说看着还蛮好看的
底部4个超级厚的减震脚垫

两个侧面相同,在靠近前脸都有x型进风口,加上底部前端的进风口,配合背部的风扇,形成从前向后的一个风道,快速将热量带走。

上一张全家福,产品保修卡,说明书,已经装上了硬盘的硬盘托架,主机,首批测试邀请卡,螺丝+扳手,电源,六类屏蔽扁网线

=============
安装硬盘,3.5”硬盘需要使用自带的螺丝从侧面安装,2.5”硬盘则是需要自备螺丝,从反面安装。
上电开机,设备注册需要手机安装极空间APP来绑定,实测下来,配置相当简单,
首先,设备连接路由器,手机连接WiFi,(如果WiFi与有线做了隔离,还是需要解除隔离才能搜索到设备)。按照app中的提示,进行操作,搜索不到设备可以直接扫描主机背后二维码添加。
注意:硬盘格式化的时候,不要断电或拔出,以免造成硬盘损坏。还有,本设备不支持热插拔,需要操作硬盘一定一定要关机断电后操作。
因为我这里一开始仅放了一块128G的ssd,在选择备份模式时,提示单硬盘模式下使用。再下一步就是格式化硬盘,主机面板上的硬盘灯从红灯常亮,到短闪,再到绿灯,手机界面也会有相应的提示(我不会承认因为领导路过,手机锁屏没截到图的)。

完成后就进入主界面,
极空间右边 表示手机与设备是同一网段,手机为无线连接,
还有一个是正常后面地球的图标,表示手机连接正常,手机在外网。

极相册:
IOS界面:
照片页面:第一次进入会提示“开启自动备份”,备份后就可以根据年,月,日来查看照片。
相册:可以自建相册,默认就是“我喜欢的”。音乐相册有点好玩,自己选择照片制作音乐相册视频,缺点就是官方模板暂时只有1个,据官方提供的消息,后续会提供更多的模板,稍晚些会把定制功能开放给用户。
设置:暂停&继续 备份,会根据手机连接情况,提醒非WiFi下载。还有重复文件清理。

极影视:
首页,默认的三个标签,播放列表,电影,电视剧
匹配到信息,会直接显示标题,匹配不到信息的,会显示文件名

如图中的“盗梦空间”是匹配到相关信息,而后面的那部电影,就显示其文件名Hard.Kill.2020.BluRay.1080...eiTai.mkv

电影,右上角,进入编辑操作,修正信息,搜索匹配,匹配到了就能查看详细信息。
也有部分影片或者电视剧动漫暂时还未能匹配到。


电影没有集数的困扰,但电视剧有啊,咱们再来看看修正集数
这里拿头文字D做示范,进详情页,右上角进入编辑操作,修正剧集集数,关联集数后,就能在详情页直接看到是第2集,而不是一开始的“集数未能匹配”。

安全管理:
如图中所见,登陆设备管理,实际上,管理员只能查看所有账号的登陆终端的类型、时间和所有账号,并不能踢下某个终端上的登陆。普通账号在这里仅仅能看到自己账号登陆情况。
登陆日志,权限与登陆设备管理相同,管理员可以查看该设备下所有账号的登陆日志,普通账号还是只能看到自己的登陆日志。另外,只有输入账号和密码登陆时,才会产生一条日志记录。比如手机上未登出过,就不会产生登陆日志。

禁用外网远程登陆,一样的权限,开启后,就只能同内网才能登陆了。

设备监控:
设备监控,可以查看设备的相关信息,各个箭头点进去可以查看详细信息,比如硬件信息,包括挂载的硬盘状态、型号、序列号
存储空间,非管理员账号,无法进入这个part
状态监控,网络信息,设备访问记录,都可以查看。默认dns是114.114.114.114哟。

论坛功能:
论坛功能,第一次会要求设置昵称,后续就会直接跳转到极空间论坛。

Android版的app还有一个功能是下载,这个ios版并没有。
可以直接添加链接下载,支持常规的磁链、http、ftp,第一次添加下载链接,还会有新用户体验下载,

还有“添加手机上的种子”,“添加极空间上的种子”,第一次点击都会有新手提示,或是新用户体验。相当不错哦,

系统设置:
系统设置,常规内容都有,这里就卖个关子了,大家就一起期待设备的开售吧

用户中心:

用户中心,管理员可以查看所有账户,自己账户情况如右图,其他账号进去可以帮忙修改密码,注销账号,目前只能拨打客服帮忙注销了。

another:

附带一个,ios自带的照片,选择一张或多张照片、视频,点击左下角的分享,可以直接选择存储到“极空间”,然后就会跳转到极空间app。


视频方面,受限于浏览器先天的性能瓶颈和功能支持,web端的性能还是比较弱,播放码率在5mbps以上的视频,就会有卡顿,内外网都是如此,不过播放功能上,手机端倒是相当给力,4K也能很流畅的播放,详细的可以看下面这个视频
web端:
https://player.youku.com/embed/XNDg3MTcwNzY4MA==
手机APP端:
https://player.youku.com/embed/XNDg3MTcyNDM4OA==
播放的视频信息
  1. General
  2. Unique ID                      : 152870570464676581571650910255395996317 (0x7301CD09931DF48C5E5087267AB5829D)
  3. Complete name                  : X:\158********\下载\Inception.2010.UHD.BluRay.2160p.2Audio.DTS-HD.MA5.1.x265.10bit.HDR-BeiTai\Inception.2010.UHD.BluRay.2160p.2Audio.DTS-HD.MA5.1.x265.10bit.HDR-BeiTai.mkv
  4. Format                         : Matroska
  5. Format version                 : Version 4 / Version 2
  6. File size                      : 21.4 GiB
  7. Duration                       : 2 h 28 min
  8. Overall bit rate               : 20.7 Mb/s
  9. Encoded date                   : UTC 2019-10-21 02:06:07
  10. Writing application            : mkvmerge v38.0.0 ('The Silent Type') 64-bit
  11. Writing library                : libebml v1.3.9 + libmatroska v1.5.2

  12. Video
  13. ID                             : 1
  14. Format                         : HEVC
  15. Format/Info                    : High Efficiency Video Coding
  16. Format profile                 : Main 10@L5.1@High
  17. Codec ID                       : V_MPEGH/ISO/HEVC
  18. Duration                       : 2 h 28 min
  19. Bit rate                       : 16.1 Mb/s
  20. Width                          : 3 840 pixels
  21. Height                         : 1 598 pixels
  22. Display aspect ratio           : 2.40:1
  23. Frame rate mode                : Constant
  24. Frame rate                     : 23.976 (24000/1001) FPS
  25. Color space                    : YUV
  26. Chroma subsampling             : 4:2:0 (Type 2)
  27. Bit depth                      : 10 bits
  28. Bits/(Pixel*Frame)             : 0.110
  29. Stream size                    : 16.7 GiB (78%)
  30. Title                          : HEVC, x265Main10@L5.1@High, 24/1.001 fps @ 16149 kbps
  31. Writing library                : x265 3.0_Au+4-dcbec33bfb0f:[Windows][GCC 8.2.1][64 bit] 10bit
  32. Encoding settings              : cpuid=1111039 / frame-threads=4 / numa-pools=16 / wpp / pmode / pme / no-psnr / no-ssim / log-level=2 / input-csp=1 / input-res=3840x1598 / interlace=0 / total-frames=213106 / level-idc=51 / high-tier=1 / uhd-bd=0 / ref=4 / no-allow-non-conformance / repeat-headers / annexb / no-aud / hrd / info / hash=0 / no-temporal-layers / no-open-gop / min-keyint=24 / keyint=240 / gop-lookahead=0 / bframes=8 / b-adapt=2 / b-pyramid / bframe-bias=0 / rc-lookahead=25 / lookahead-slices=0 / scenecut=40 / radl=0 / no-splice / no-intra-refresh / ctu=64 / min-cu-size=8 / no-rect / no-amp / max-tu-size=32 / tu-inter-depth=3 / tu-intra-depth=3 / limit-tu=4 / rdoq-level=2 / dynamic-rd=0.00 / no-ssim-rd / signhide / no-tskip / nr-intra=0 / nr-inter=0 / no-constrained-intra / no-strong-intra-smoothing / max-merge=4 / limit-refs=1 / limit-modes / me=3 / subme=4 / merange=25 / temporal-mvp / weightp / weightb / no-analyze-src-pics / deblock=-3:-3 / no-sao / no-sao-non-deblock / rd=6 / no-early-skip / rskip / no-fast-intra / no-tskip-fast / no-cu-lossless / b-intra / no-splitrd-skip / rdpenalty=0 / psy-rd=2.00 / psy-rdoq=1.00 / no-rd-refine / no-lossless / cbqpoffs=0 / crqpoffs=0 / rc=crf / crf=18.5 / qcomp=0.65 / qpstep=4 / stats-write=0 / stats-read=0 / vbv-maxrate=160000 / vbv-bufsize=160000 / vbv-init=0.9 / crf-max=0.0 / crf-min=0.0 / ipratio=1.30 / pbratio=1.20 / aq-mode=3 / aq-strength=0.85 / cutree / zone-count=0 / no-strict-cbr / qg-size=32 / no-rc-grain / qpmax=69 / qpmin=0 / no-const-vbv / sar=1 / overscan=0 / videoformat=5 / range=0 / colorprim=9 / transfer=16 / colormatrix=9 / chromaloc=1 / chromaloc-top=2 / chromaloc-bottom=2 / display-window=0 / master-display=G(13250,34500)B(7500,3000)R(34000,16000)WP(15635,16450)L(40000000,50) / max-cll=1538,308 / min-luma=0 / max-luma=1023 / log2-max-poc-lsb=8 / vui-timing-info / vui-hrd-info / slices=1 / no-opt-qp-pps / no-opt-ref-list-length-pps / no-multi-pass-opt-rps / scenecut-bias=0.05 / no-opt-cu-delta-qp / no-aq-motion / hdr / hdr-opt / no-dhdr10-opt / no-idr-recovery-sei / analysis-reuse-level=5 / scale-factor=0 / refine-intra=0 / refine-inter=0 / refine-mv=0 / refine-ctu-distortion=0 / no-limit-sao / ctu-info=0 / no-lowpass-dct / refine-analysis-type=0 / copy-pic=1 / max-ausize-factor=1.0 / no-dynamic-refine / no-single-sei / no-hevc-aq / qp-adaptation-range=1.00
  33. Language                       : English
  34. Default                        : Yes
  35. Forced                         : No
  36. Color range                    : Limited
  37. Color primaries                : BT.2020
  38. Transfer characteristics       : SMPTE ST 2084
  39. Matrix coefficients            : BT.2020 non-constant
  40. Mastering display color primar : R: x=0.680000 y=0.320000, G: x=0.265000 y=0.690000, B: x=0.150000 y=0.060000, White point: x=0.312700 y=0.329000
  41. Mastering display luminance    : min: 0.0050 cd/m2, max: 4000.0000 cd/m2
  42. Maximum Content Light Level    : 1538 cd/m2
  43. Maximum Frame-Average Light Le : 308 cd/m2

  44. Audio #1
  45. ID                             : 2
  46. Format                         : DTS
  47. Format/Info                    : Digital Theater Systems
  48. Format profile                 : MA / Core
  49. Mode                           : 16
  50. Format settings, Endianness    : Big
  51. Codec ID                       : A_DTS
  52. Duration                       : 2 h 28 min
  53. Bit rate mode                  : Variable / Constant
  54. Bit rate                       : 3 840 kb/s / 1 509 kb/s
  55. Channel(s)                     : 6 channels
  56. Channel positions              : Front: L C R, Side: L R, LFE
  57. Sampling rate                  : 48.0 kHz
  58. Frame rate                     : 93.750 FPS (512 spf)
  59. Bit depth                      : 24 bits
  60. Compression mode               : Lossless / Lossy
  61. Stream size                    : 3.95 GiB (18%)
  62. Title                          : English DTS-HD Master Audio 5.1 @ 3821 kbps
  63. Language                       : English
  64. Default                        : Yes
  65. Forced                         : No

  66. Audio #2
  67. ID                             : 3
  68. Format                         : AC-3
  69. Format/Info                    : Audio Coding 3
  70. Format settings, Endianness    : Big
  71. Codec ID                       : A_AC3
  72. Duration                       : 2 h 28 min
  73. Bit rate mode                  : Constant
  74. Bit rate                       : 640 kb/s
  75. Channel(s)                     : 6 channels
  76. Channel positions              : Front: L C R, Side: L R, LFE
  77. Sampling rate                  : 48.0 kHz
  78. Frame rate                     : 31.250 FPS (1536 spf)
  79. Bit depth                      : 16 bits
  80. Compression mode               : Lossy
  81. Stream size                    : 678 MiB (3%)
  82. Title                          : Mandarin Dolby Digital Audio 5.1 @ 640 kbps 原盘国语
  83. Language                       : Chinese
  84. Service kind                   : Complete Main
  85. Default                        : No
  86. Forced                         : No

  87. Text #1
  88. ID                             : 4
  89. Format                         : PGS
  90. Codec ID                       : S_HDMV/PGS
  91. Codec ID/Info                  : Picture based subtitle format used on BDs/HD-DVDs
  92. Duration                       : 2 h 27 min
  93. Bit rate                       : 32.7 kb/s
  94. Count of elements              : 3476
  95. Stream size                    : 34.4 MiB (0%)
  96. Title                          : Eng/SUP
  97. Language                       : English
  98. Default                        : No
  99. Forced                         : No

  100. Text #2
  101. ID                             : 5
  102. Format                         : PGS
  103. Codec ID                       : S_HDMV/PGS
  104. Codec ID/Info                  : Picture based subtitle format used on BDs/HD-DVDs
  105. Duration                       : 2 h 26 min
  106. Bit rate                       : 27.5 kb/s
  107. Count of elements              : 3332
  108. Stream size                    : 28.8 MiB (0%)
  109. Title                          : Chs/SUP  原盘简体
  110. Language                       : Chinese
  111. Default                        : Yes
  112. Forced                         : No

  113. Text #3
  114. ID                             : 6
  115. Format                         : PGS
  116. Codec ID                       : S_HDMV/PGS
  117. Codec ID/Info                  : Picture based subtitle format used on BDs/HD-DVDs
  118. Duration                       : 2 h 26 min
  119. Bit rate                       : 25.2 kb/s
  120. Count of elements              : 3593
  121. Stream size                    : 26.3 MiB (0%)
  122. Title                          : Cht/SUP  原盘繁体(TW)
  123. Language                       : Chinese
  124. Default                        : No
  125. Forced                         : No

  126. Text #4
  127. ID                             : 7
  128. Format                         : PGS
  129. Codec ID                       : S_HDMV/PGS
  130. Codec ID/Info                  : Picture based subtitle format used on BDs/HD-DVDs
  131. Duration                       : 2 h 26 min
  132. Bit rate                       : 22.2 kb/s
  133. Count of elements              : 3245
  134. Stream size                    : 23.3 MiB (0%)
  135. Title                          : Cht/SUP  原盘繁体(HK)
  136. Language                       : Chinese
  137. Default                        : No
  138. Forced                         : No

  139. Menu
  140. 00:00:00.000                   : en:绗?01 绔?
  141. 00:11:41.743                   : en:绗?02 绔?
  142. 00:21:37.338                   : en:绗?03 绔?
  143. 00:31:20.337                   : en:绗?04 绔?
  144. 00:41:22.230                   : en:绗?05 绔?
  145. 00:51:13.737                   : en:绗?06 绔?
  146. 01:01:21.553                   : en:绗?07 绔?
  147. 01:10:29.684                   : en:绗?08 绔?
  148. 01:22:15.597                   : en:绗?09 绔?
  149. 01:31:52.590                   : en:绗?10 绔?
  150. 01:40:38.532                   : en:绗?11 绔?
  151. 01:51:22.175                   : en:绗?12 绔?
  152. 02:00:54.414                   : en:绗?13 绔?
  153. 02:10:09.051                   : en:绗?14 绔?
  154. 02:20:55.447                   : en:绗?15 绔?
复制代码


整体体验下来,相比于群晖,上手真的是非常简单,需要设置的地方相当少,很多地方,官方都已经为用户考虑到了。设备到手,按说明插上硬盘,联网开机,手机注册登陆,等待自动格式化硬盘,然后就能使用了。非常适合家庭使用,尤其是刚开始接触的小白。
不需要路由器设置端口转发,移动大内网或者电信10.*.*.*的内网网段,借着官方租用的高速带宽(实测大约30-40Mbps),也能从外网连上设备,网络速度没问题的情况下,完全不挑网络类型。**如果有域名的各位,觉得官方提供的带宽不能满足自己的需求,倒是可以做5055的端口转发。
常用功能,出厂已内置,基本上不需要额外设置就能直接使用了。
停电后,来电会自启动。只是电源为二线插头,并非三线插头,与自己的apc bk650不能兼容,对于电网不稳定或是经常跳电的用户不是非常友好。

在收到Z2后一周下来,由于经常受到娃的干扰,本文也是写的断断续续,功能上测试的也并不全面,还请各位包涵。
最后奉上Z2与918+的合照,也祝极空间的产品越来越完善,期待4盘位的产品下线。



楼主热帖
分享到 :
0 人收藏

2 个回复

倒序浏览
tyy474  发烧38℃ | 2020-10-9 10:40:57
没人回复么,感觉定价成了最大问题,后期这个官方的高速转发费用可不少钱,羊毛出在羊身上,手机看视频是因为手机做的解码,相当于流媒体串流吧
zhangy531  发烧38℃ | 2020-10-16 16:58:31
坐等矿机
您需要登录后才可以回帖 登录 | 注册

本版积分规则

氘氘

VIP贵族

积分: 137 帖子: 83 精华: 0

楼主热帖

买群晖找momo,双十一大刀砍,优惠咨询客服。 立即登录 立即注册

微信扫一扫关注公众号,获取注册邀请码!

小黑屋|手机版|Archiver|隔壁网 ( 粤ICP备14056481号-1 )

Powered by Discuz! X3.4 © 2001-2016 Comsenz Inc.

返回顶部